• 프로그램을 삭제하거나 정품 등록을 해제하면 다른 PC에서 시리얼 번호를 다시 사용 할 수 있습니다 » 자세히
  • 빠르고 정확한 답변을 원하실 경우, bandicut@bandicam.com으로 동영상 파일을 보내 주시기 바랍니다.


안녕하세요.

반디소프트 프로그램들 잘 사용하고 있습니다.

이번에 동영상을 편하게 자르는 프로그램을 내놓아서 기대가 큽니다.


다만 아직 지원 코덱에 미흡함이 많은 것 같더군요.

이번에 MKV, x264, FLAC 파일과 HD방송 캡쳐 원본인 TP파일을 자르려 시도했으나 고속 모드는 되지 않았습니다.

화질 저하가 있는 변환 모드로 자르려면, 그리고 AVI로만 저장을 하려면 

솔직히 딱 잘라 말씀드려 33,000원이란 거액을 지불할 이유가 없구요...


일본 애니메이션 블루레이 립들이 보통 mkv (혹은 mp4), h264, FLAC을 사용하여 많이 올라옵니다.

또한 TV 드라마의 경우 최대한 좋은 화질을 위해 TP 원본을 받는 사람도 많습니다.

33,000원을 지불하면서 동영상 자르기 프로그램을 사는 사람이라면 그 방면에 꽤 관심이 있는 편이며,

블루레이 립이나 TP 원본을 보관하면서 커팅하는 경우가 많을거라고 생각합니다.

지금처럼 해당 코덱들에 대해 고속 모드를 미지원한다면 아쉬워하는 분들이 많을듯 하네요.

빠르게 보완되었으면 좋겠습니다.


샘플 파일 정보는 하단에 첨부합니다.

감사합니다.


샘플파일 1)

F:\커팅대상\[Yousei-raws] Macross Frontier [BDrip 1920x1080 x264 FLAC]\[Yousei-raws] Macross Frontier 08 [BDrip 1920x1080 x264 FLAC].mkv

  General

    Unique ID : 27774138553919403199994282789712296752 (0x14E51AC14D53B6D60D58EEE31AB1FB30)

    Complete name : F:\커팅대상\[Yousei-raws] Macross Frontier [BDrip 1920x1080 x264 FLAC]\[Yousei-raws] Macross Frontier 08 [BDrip 1920x1080 x264 FLAC].mkv

    Format : Matroska

    Format version : Version 2

    File size : 1.80 GiB

    Duration : 24mn 9s

    Overall bit rate mode : Variable

    Overall bit rate : 10.7 Mbps

    Encoded date : UTC 2010-06-13 00:30:18

    Writing application : mkvmerge v3.3.0 ('Language') built on Apr 19 2010 23:24:05

    Writing library : libebml v0.7.8 + libmatroska v0.8.1

  Video #1

    ID : 1

    Format : AVC

    Format/Info : Advanced Video Codec

    Format profile : High@L4.1

    Format settings, CABAC : Yes

    Format settings, ReFrames : 4 frames

    Codec ID : V_MPEG4/ISO/AVC

    Duration : 24mn 9s

    Nominal bit rate : 10 000 Kbps

    Width : 1 920 pixels

    Height : 1 080 pixels

    Display aspect ratio : 16:9

    Frame rate mode : Constant

    Frame rate : 23.976 fps

    Color space : YUV

    Chroma subsampling : 4:2:0

    Bit depth : 8 bits

    Scan type : Progressive

    Bits/(Pixel*Frame) : 0.201

    Title : BDrip by Yousei

    Writing library : x264 core 98 r1643 0cd5d69

    Encoding settings : cabac=1 / ref=4 / deblock=1:-2:-2 / analyse=0x3:0x133 / me=umh / subme=9 / psy=1 / psy_rd=0.70:0.00 / mixed_ref=1 / me_range=24 / chroma_me=1 / trellis=2 / 8x8dct=1 / cqm=0 / deadzone=21,11 / fast_pskip=1 / chroma_qp_offset=-2 / threads=12 / sliced_threads=0 / nr=0 / decimate=0 / interlaced=0 / constrained_intra=0 / bframes=8 / b_pyramid=2 / b_adapt=2 / b_bias=0 / direct=3 / weightb=1 / weightp=2 / keyint=250 / keyint_min=25 / scenecut=40 / intra_refresh=0 / rc=2pass / mbtree=0 / bitrate=10000 / ratetol=1.0 / qcomp=0.60 / qpmin=9 / qpmax=22 / qpstep=4 / cplxblur=20.0 / qblur=0.5 / ip_ratio=1.40 / pb_ratio=1.30 / aq=1:0.90

    Default : Yes

    Forced : No

  Audio #2

    ID : 2

    Format : FLAC

    Format/Info : Free Lossless Audio Codec

    Codec ID : A_FLAC

    Duration : 24mn 9s

    Bit rate mode : Variable

    Channel count : 2 channels

    Sampling rate : 48.0 KHz

    Bit depth : 16 bits

    Title : LPCM -> flac

    Writing library : libFLAC 1.2.1 (UTC 2007-09-17)

    Language : Japanese

    Default : Yes

    Forced : No



샘플 파일 2)
C:\Users\Administrator\Desktop\That Winter, The Wind Blows E16 1080i HDTV MPEG2-LoI.ts
  General #1
    ID : 1 (0x1)
    Complete name : C:\Users\Administrator\Desktop\That Winter, The Wind Blows E16 1080i HDTV MPEG2-LoI.ts
    Format : MPEG-TS
    File size : 8.00 GiB
    Duration : 1h 3mn
    Overall bit rate mode : Variable
    Overall bit rate : 18.2 Mbps
  Video #17
    ID : 17 (0x11)
    Menu ID : 1 (0x1)
    Format : MPEG Video
    Format version : Version 2
    Format profile : Main@High
    Format settings, BVOP : Yes
    Format settings, Matrix : Default
    Format settings, GOP : Variable
    Codec ID : 2
    Duration : 1h 3mn
    Bit rate mode : Variable
    Bit rate : 16.9 Mbps
    Maximum bit rate : 17.7 Mbps
    Width : 1 920 pixels
    Height : 1 080 pixels
    Display aspect ratio : 16:9
    Active Format Description : Full frame 16:9 image
    Frame rate : 29.970 fps
    Color space : YUV
    Chroma subsampling : 4:2:0
    Bit depth : 8 bits
    Scan type : Interlaced
    Scan order : Top Field First
    Compression mode : Lossy
    Bits/(Pixel*Frame) : 0.271
    Time code of first frame : 00:00:00;00
    Time code source : Group of pictures header
    Stream size : 7.43 GiB (93%)
  Audio #20
    ID : 20 (0x14)
    Menu ID : 1 (0x1)
    Format : AC-3
    Format/Info : Audio Coding 3
    Mode extension : CM (complete main)
    Format settings, Endianness : Big
    Codec ID : 129
    Duration : 1h 3mn
    Bit rate mode : Constant
    Bit rate : 384 Kbps
    Channel count : 2 channels
    Channel positions : Front: L R
    Sampling rate : 48.0 KHz
    Bit depth : 16 bits
    Compression mode : Lossy
    Stream size : 173 MiB (2%)
    Language : Korean
  Text #17-1
    ID : 17 (0x11)-1
    Menu ID : 1 (0x1)
    Format : EIA-708
    Muxing mode : A/53 / DTVCC Transport
    Muxing mode, more info : Muxed in Video #1
    Duration : 1h 3mn
    Bit rate mode : Constant
    Stream size : 0.00 Byte (0%)

번호 제목 글쓴이 날짜 조회 수
공지 빠르고 정확한 답변을 원하실 경우, bandicut@bandicam.com으로 동영상 파일을 보내 주시기 바랍니다. 반디캠컴퍼니2 2017.01.02 94512
2618 영상을 저장후 움직이는gif 타입으로 저장이 가능한가요? [1] 초보 2019.09.04 95954
2617 반디 로고 화면 없애려고 하는데 계속 나옵니다. [1] 로고삭제 2017.02.16 34954
2616 고속변환시 프레임 너비 높이 길이등이 탐색기에서 표시가 안됨 [3] 최훈 2017.11.27 33926
2615 반디컷 합치기 문제 [2] habesha 2017.10.21 31168
2614 번호 [1] 감토 2016.12.12 29321
2613 가격정책이 이해가 안가네요 [19] 안녕하세요 2013.10.13 25907
2612 [질문] 가속에 따른(소프트웨어 모드와 하드웨어 가속 모드) 화질 차이가 있습니까? [1] 하명 2014.03.26 19941
2611 반디컷 기능 제안이요 [1] file 반디컷 정품 사용자 2014.05.08 18593
» 고속 모드 제대로 지원 못 하는 파일이 너무 많네요. [1] ㅇㅇ 2013.11.19 18264
2609 정말 좋은 컷팅 프로그램입니다. [1] 김재근 2013.08.27 15572
2608 번호 [1] 감토 2016.12.12 14924
2607 33,000원에 동영상 자르기 프로그램? [2] Reviewer 2013.09.01 14052
2606 오프닝 어떻게 없애죠? [1] 에리웁 2013.09.16 13431
2605 자른 동영상 소리가 안들려요 [10] 반딩 2013.10.30 13121
2604 반디캠과 반디컷을 결합 상품으로 파는것은 어떨까요? [2] 제안 2013.08.07 13028
2603 동영상 자르기 완료 후 파일명을 고쳐서 저장이 안되네요 [1] tklim 2013.09.22 12961
2602 반디컷 [1] 아웃라이어 2013.09.15 12880
2601 밑에 분도 언급하셨지만 가격 말입니다... [1] yjsoft 2013.08.12 12772
2600 편집 기능이 있어야... [1] metboy 2013.08.21 12636
2599 아...코덱지원..... [1] 반디반디반디 2013.10.02 12620